Possible Import File Size Limit?

edited November 9 in Express Support

So I was going to start doing some editing when I noticed that any time I tried to import an MP4 that was around, 1.7GB it would respond. I left the program on its own for a good half hour, came back and it wasn't responding. Is it that my computer's too weak to handle this much?

For the sake of not needing to ask here are my specs:
Win64

32GB of RAM.

AMD FX 6300 CPU

AMD RX 480 Graphics Card

 

Edit: Problem self worked out.

Comments

  • I have imported 13GB AVC/AAC/MP4 files. Constant frame rate.

    You mentioned no specifics about your media file contents. I would guess it is an AVC/H.264 file with AAC audio. The media is probably Variable frame rate (VFR) as well. A full text MediaInfo report will let us know the details (free utility).

    While Hitfilm 2017 can handle VFR it does cause extra application overhead, especially on import, and there can be some quality hiccups, and maybe an import VFR frame rate analysis problem where is never finishes (stalls).

    Also, when editing files that big you are probably going to want to turn the audio waveform off on the NLE timeline. This can cause slowdowns. Especially with AAC/MP3 audio. Actually the size does not matter but the length in time that matters.

  • I guess I did forget that, pardon me. I think I got the full text dumb here:

    Format                                   : MPEG-4
    Format profile                           : Base Media / Version 2
    Codec ID                                 : mp42 (isom/mp42)
    File size                                : 1.68 GiB
    Duration                                 : 4 h 34 min
    Overall bit rate mode                    : Variable
    Overall bit rate                         : 877 kb/s
    Encoded date                             : UTC 2017-11-08 22:44:42
    Tagged date                              : UTC 2017-11-08 22:44:42
    gsst                                     : 0
    gstd                                     : 16490254

    Video
    ID                                       : 1
    Format                                   : AVC
    Format/Info                              : Advanced Video Codec
    Format profile                           : Main@L3.1
    Format settings                          : CABAC / 3 Ref Frames
    Format settings, CABAC                   : Yes
    Format settings, RefFrames               : 3 frames
    Codec ID                                 : avc1
    Codec ID/Info                            : Advanced Video Coding
    Duration                                 : 4 h 34 min
    Bit rate                                 : 749 kb/s
    Width                                    : 1 280 pixels
    Height                                   : 720 pixels
    Display aspect ratio                     : 16:9
    Frame rate mode                          : Constant
    Frame rate                               : 30.000 FPS
    Color space                              : YUV
    Chroma subsampling                       : 4:2:0
    Bit depth                                : 8 bits
    Scan type                                : Progressive
    Bits/(Pixel*Frame)                       : 0.027
    Stream size                              : 1.44 GiB (85%)
    Encoded date                             : UTC 2017-11-08 22:44:42
    Tagged date                              : UTC 2017-11-08 22:44:42
    Color range                              : Limited
    Color primaries                          : BT.709
    Transfer characteristics                 : BT.709
    Matrix coefficients                      : BT.709

    Audio
    ID                                       : 2
    Format                                   : AAC
    Format/Info                              : Advanced Audio Codec
    Format profile                           : LC
    Codec ID                                 : mp4a-40-2
    Duration                                 : 4 h 34 min
    Bit rate mode                            : Variable
    Bit rate                                 : 126 kb/s
    Channel(s)                               : 2 channels
    Channel positions                        : Front: L R
    Sampling rate                            : 44.1 kHz
    Frame rate                               : 43.066 FPS (1024 SPF)
    Compression mode                         : Lossy
    Stream size                              : 247 MiB (14%)
    Encoded date                             : UTC 2017-11-08 22:44:42
    Tagged date                              : UTC 2017-11-08 22:44:42

  • edited November 9

    Okay at least you are constant frame rate. Check that one off.

    The media file is 4 hours long. Ouch.

    What is your project audio sample rate. Hitfilm defaults to 48Khz. Your media is 44.1Khz. Hitfilm resamples the audio from media to project frame rate on import when they differ. That is one item HF saves in it's "cache". If you make your project audio sample rate the same as media, 44.1 in this case, then Hitfilm will not perform this resample on import.

    That's call I can think of right now.

    With 4 hour media, I think you will really want to disable audio waveforms as previously mentioned.

Sign in to comment

Leave a Comment